DL-List and Torrent activity
None
Ratings release: [ ]
 
 
 
 

catkiev

Модератор

Longevity:
9 years 3 months
Posts:
2851

Волинський народний хор - Українські народні пісні (2 CD)
Обкладинка

Жанр: народна музика
Трекліст:

CD 1

01 Ой, у полі нивка - українська народна пісня (2:31)
02 Виступали козаченьки - українська народна пісня (1:50)
03 Гарний козак, гарний - П. Свист, сл. О. Шолдака (4:02)
04 Гиля, гиля, сірі гуси - українська народна пісня (4:16)
05 На вулиці музиченька грає - українська народна пісня (2:20)
06 Налий, мамо, шклянку рому - українська народна пісня (2:58)
07 Чи ти чув, миленький - українська народна пісня (2:37)
08 Ой, коли ми поберемось - українська народна пісня (2:22)
09 Чи ти не знаєш, де я мешкаю - українська народна пісня (3:16)
10 На Івана Купала - українська народна пісня (8:20)
11 Під дубиною - українська народна пісня (2:58)
12 Сіно моє, сіно - українська народна пісня (3:53)
13 Хтіла мене мати - українська народна пісня (5:13)
14 Я ж тебе, Галю, не лаю - українська народна пісня (3:55)
15 Їхали хлопці з ярмарку - українська народна пісня (2:45)

CD 2

01 Гарний козак, гарний - П. Свист, сл. О. Шолдака (4:12)
02 У Києві на ринку - українська народна пісня (2:41)
03 Ой, у полі озеречко - українська народна пісня (3:03)
04 Гуляв я три роки - українська народна пісня (3:08)
05 Їхали козаченьки степом, долиною - українська народна пісня (3:17)
06 Ти пив і я пила - українська народна пісня (3:12)
07 Наступає чорна хмара - українська народна пісня (3:07)
08 Ой, у полі нивка - українська народна пісня (2:49)
09 Ой, на горі цигани стояли - українська народна пісня (3:05)
10 Ой, мамцю моя - українська народна пісня (2:24)
11 Козак Мамай - О. Стадник, сл. Д Кульняка (4:02)
12 Розпрягайте, хлопці, коней - українська народна пісня (3:50)
13 Біда мене та й заставила - українська народна пісня (2:46)
14 Ой, пряла б я куделицю - українська народна пісня (2:35)
15 За байраком байрак - українська народна пісня на слова Шевченка (5:22)
16 Козак виїжджає - українська народна пісня (2:56)
17 Ой, гай зелененький - українська народна пісня (2:52)
18 Гей, у лузі - О. Петров, сл. В. Симоненка (4:04)
19 Як служив я в пана - українська народна пісня (3:36)
20 Виступали козаченьки - українська народна пісня (1:58)
21 Гиля, гиля, сірі гуси - українська народна пісня (4:09)
22 Козацьке весілля - музика і слова О. Стадника (3:00)
23 Гей, соколи - українська народна пісня (3:17)

Line-up: EAC logs

CD1

Exact Audio Copy V0.99 prebeta 4 from 23. January 2008
Звіт EAC про видобування, котре виконане 17. січня 2009, 4:38
Невідомий Виконавець / Невідома Назва
Дисковод: SONY CD-RW CRX230E Adapter: 1 ID: 1
Режим читання : Точний
Використати точний потік : Так
Вимкнути аудіо кеш : Так
Застосувати мітки C2 : Ні
Корекція зміщення при читанні : 6
Екстрачитання областей Lead-in і Lead-out : Ні
Заповнення пропущених семплів тишею : Так
Видалення блоків з тишею на початку і кінці : Ні
При вирахуванні CRC використовувались нульові семпли : Так
Використаний інтерфейс : Встановлений зовнішній ASPI-інтерфейс
Застосований вихідний формат : Внутрішні WAV-операції
Формат семпла : 44.100 Гц; 16 біт; стерео
TOC видобутого CD
Трек | Старт | Довжина | Початковий сектор | Кінцевий сектор
------------------------------------------------------------------
1 | 0:00.00 | 2:48.59 | 0 | 12658
2 | 2:48.59 | 1:58.04 | 12659 | 21512
3 | 4:46.63 | 4:11.04 | 21513 | 40341
4 | 8:57.67 | 4:24.04 | 40342 | 60145
5 | 13:21.71 | 2:28.04 | 60146 | 71249
6 | 15:50.00 | 3:05.39 | 71250 | 85163
7 | 18:55.39 | 2:46.56 | 85164 | 97669
8 | 21:42.20 | 2:29.72 | 97670 | 108916
9 | 24:12.17 | 3:24.36 | 108917 | 124252
10 | 27:36.53 | 8:26.19 | 124253 | 162221
11 | 36:02.72 | 3:03.12 | 162222 | 175958
12 | 39:06.09 | 4:02.21 | 175959 | 194129
13 | 43:08.30 | 5:18.37 | 194130 | 218016
14 | 48:26.67 | 4:04.14 | 218017 | 236330
15 | 52:31.06 | 2:51.48 | 236331 | 249203
Статус діапазону і помилки
Обраний діапазон
Ім'я файлу E:\Lossless\Волинський народний хор\Volynskiy chor d1.wav
Піковий рівень 100.0 %
Якість діапазону 99.9 %
CRC копії 9110A3B8
Копіювання... OK
Помилки не траплялися
Кінець звіту

CD2

Exact Audio Copy V0.99 prebeta 4 from 23. January 2008
Звіт EAC про видобування, котре виконане 17. січня 2009, 14:42
Невідомий Виконавець / Невідома Назва
Дисковод: SONY CD-RW CRX230E Adapter: 1 ID: 1
Режим читання : Точний
Використати точний потік : Так
Вимкнути аудіо кеш : Так
Застосувати мітки C2 : Ні
Корекція зміщення при читанні : 6
Екстрачитання областей Lead-in і Lead-out : Ні
Заповнення пропущених семплів тишею : Так
Видалення блоків з тишею на початку і кінці : Ні
При вирахуванні CRC використовувались нульові семпли : Так
Використаний інтерфейс : Встановлений зовнішній ASPI-інтерфейс
Застосований вихідний формат : Внутрішні WAV-операції
Формат семпла : 44.100 Гц; 16 біт; стерео
TOC видобутого CD
Трек | Старт | Довжина | Початковий сектор | Кінцевий сектор
------------------------------------------------------------------
1 | 0:00.00 | 4:12.27 | 0 | 18926
2 | 4:12.27 | 2:41.09 | 18927 | 31010
3 | 6:53.36 | 3:03.62 | 31011 | 44797
4 | 9:57.23 | 3:08.23 | 44798 | 58920
5 | 13:05.46 | 3:17.26 | 58921 | 73721
6 | 16:22.72 | 3:12.36 | 73722 | 88157
7 | 19:35.33 | 3:07.24 | 88158 | 102206
8 | 22:42.57 | 2:49.41 | 102207 | 114922
9 | 25:32.23 | 3:05.02 | 114923 | 128799
10 | 28:37.25 | 2:24.63 | 128800 | 139662
11 | 31:02.13 | 4:03.00 | 139663 | 157887
12 | 35:05.13 | 3:50.03 | 157888 | 175140
13 | 38:55.16 | 2:46.27 | 175141 | 187617
14 | 41:41.43 | 2:35.14 | 187618 | 199256
15 | 44:16.57 | 5:22.42 | 199257 | 223448
16 | 49:39.24 | 2:56.08 | 223449 | 236656
17 | 52:35.32 | 2:52.19 | 236657 | 249575
18 | 55:27.51 | 4:04.03 | 249576 | 267878
19 | 59:31.54 | 3:36.31 | 267879 | 284109
20 | 63:08.10 | 1:58.03 | 284110 | 292962
21 | 65:06.13 | 4:09.24 | 292963 | 311661
22 | 69:15.37 | 3:00.62 | 311662 | 325223
23 | 72:16.24 | 3:17.10 | 325224 | 340008
Статус діапазону і помилки
Обраний діапазон
Ім'я файлу E:\Lossless\Волинський народний хор\Volynskiy chor d2.wav
Піковий рівень 100.0 %
Якість діапазону 99.9 %
CRC копії 14D98CF3
Копіювання... OK
Помилки не траплялися
Кінець звіту
Тривалість: 2:15:56
Аудіокодек: APE
Бітрейт аудіо: 600-658 кб/с
Взято на СПАМ. Дякую heihasi. Виправлено .cue файли, що були в оригіналі.
Офіційний веб-майданчик Державного академічного Волинського народного хору

Я как настоящий кактус: зелёный, пью редко и расту рядом с компьютером. (c) daru
через низку техпроблем - майже нічого не роздаю. при потребі - звертайтесь в ПП. раз на тиждень-два заходжу на форум.


Last edited by catkiev on 10-January-2010 00:01; edited 1 time in total

zimorodokan

Longevity:
7 years 4 months
Posts:
2

Офіційний веб-майданчик Державного академічного Волинського народного хору - http://volyn.su

08-Jan-2010 00:08 (after 11 months 6 days)  [Profile]  [PM] 

[Quote] 

catkiev

Модератор

Longevity:
9 years 3 months
Posts:
2851

zimorodokan
дякую за посилання. додав до інфо. При чому, особиста подяка, бо у складі хорової групи є моя дуже хороша знайома Smile

Я как настоящий кактус: зелёный, пью редко и расту рядом с компьютером. (c) daru
через низку техпроблем - майже нічого не роздаю. при потребі - звертайтесь в ПП. раз на тиждень-два заходжу на форум.

10-Jan-2010 00:00 (after 1 day 23 hours)  [Profile]  [PM] 

[Quote] 

grynak

Longevity:
5 years 7 months
Posts:
5

Справжній народний хор, від мене аж до землі поклон.

31-Mar-2011 12:24 (after 1 year 2 months)  [Profile]  [PM] 

[Quote] 

Wakula

Longevity:
5 years 1 month
Posts:
1

Дякую! Справді порадували роздачею!))

07-Apr-2011 11:17 (after 6 days)  [Profile]  [PM] 

[Quote] 

blackraven72

Longevity:
4 years
Posts:
2

Подскажите, тут есть где-нибудь кнопка "спасибо", а то очень хочется поблагодарить, а найти не могу.

03-May-2012 01:18 (after 1 year)  [Profile]  [PM] 

[Quote] 

blackraven72

Longevity:
4 years
Posts:
2

Будь-ласка дайте швидкості для скачування

04-May-2012 16:28 (after 1 day 15 hours)  [Profile]  [PM] 

[Quote] 

Display posts from previous:    

The time now is: Today 08:43

All times are GMT + 3 Hours



You cannot post new topics in this forum
You cannot reply to topics in this forum
You cannot edit your posts in this forum
You cannot delete your posts in this forum
You cannot vote in polls in this forum
You cannot attach files in this forum
You cannot download files in this forum

DISCLAIMER - ВНИМАНИЕ

Сайт не предоставляет электронные версии произведений, а занимается лишь коллекционированием и каталогизацией ссылок, присылаемых и публикуемых на форуме нашими читателями. Если вы являетесь правообладателем какого-либо представленного материала и не желаете чтобы ссылка на него находилась в нашем каталоге, свяжитесь с нами и мы незамедлительно удалим её. Файлы для обмена на трекере Torrents.Net.Ua предоставлены пользователями сайта, и администрация не несёт ответственности за их содержание. Просьба не заливать файлы, защищенные авторскими правами, а также файлы нелегального содержания!

Please don't upload copyrighted or illegal files! All logos and trademarks in this site are property of their respective owner.
The comments are property of their posters, all the rest ©.


Добавить рекламное объявление